<?xml version="1.0" standalone="no"?>
<!DOCTYPE svg PUBLIC "-//W3C//DTD SVG 1.1//EN" "http://www.w3.org/Graphics/SVG/1.1/DTD/svg11.dtd" >
<svg xmlns="http://www.w3.org/2000/svg" xmlns:xlink="http://www.w3.org/1999/xlink" version="1.1">
<metadata>
Created by FontForge 20201107 at Wed May  8 18:39:13 2013
 By 
Kracov Samhain
</metadata>
<defs>
<font id="Samhain" horiz-adv-x="833" >
  <font-face 
    font-family="Samhain"
    font-weight="400"
    font-stretch="normal"
    units-per-em="1000"
    panose-1="2 0 0 0 0 0 0 0 0 0"
    ascent="750"
    descent="-250"
    x-height="767"
    cap-height="984"
    bbox="-64 -381 1120 1097"
    underline-thickness="50"
    underline-position="-100"
    unicode-range="U+0020-2044"
  />
<missing-glyph horiz-adv-x="500" 
 />
    <glyph glyph-name=".notdef" horiz-adv-x="500" 
 />
    <glyph glyph-name=".null" horiz-adv-x="0" 
 />
    <glyph glyph-name="nonmarkingreturn" horiz-adv-x="500" 
 />
    <glyph glyph-name="space" unicode=" " horiz-adv-x="500" 
 />
    <glyph glyph-name="space" unicode="&#xa0;" horiz-adv-x="500" 
 />
    <glyph glyph-name="exclam" unicode="!" 
d="M397 120l-43 661l46 119l42 -121zM402 -153l-119 301l288 -172l-333 -5l274 180z" />
    <glyph glyph-name="quotedbl" unicode="&#x22;" horiz-adv-x="661" 
d="M111 675l118 9l-22 -204q-20 2 -36 5q-14 2 -25.5 5t-11.5 5zM415 684l116 -1l-36 -199q-20 3 -35 7q-14 3 -24.5 6.5t-10.5 5.5z" />
    <glyph glyph-name="numbersign" unicode="#" 
d="M77 -33q-1 -2 0 11t3 29q2 18 5 43l288 784l94 57q-109 -259 -194 -461q-36 -87 -71 -169.5t-63 -147.5t-45 -105t-17 -41zM308 -64l377 940l24 -119l-350 -773zM58 648l823 -124l-109 -26l-679 106zM-14 438l829 -162l-134 -15l-660 134z" />
    <glyph glyph-name="dollar" unicode="$" 
d="M64 434l581 369l128 7l-602 -364l596 -198l-525 -391l-133 -32l560 408zM250 880l171 -1066l-42 87l-179 819zM440 943q-1 0 13.5 -18t31.5 -40q20 -26 46 -57l1 -887l-14 -113q-21 311 -38 557q-7 105 -14 205t-12.5 178.5t-9.5 126.5z" />
    <glyph glyph-name="ampersand" unicode="&#x26;" 
d="M737 -82l-603 754l225 255l233 -236l-224 -212l361 -466zM333 523l23 -68l-236 -273l251 -215l427 431l-30 -108l-396 -399l-320 287zM359 844q1 -1 -4.5 -8t-16 -18.5t-23.5 -26t-27 -29.5q-33 -35 -76 -79l130 -168l166 184q-44 41 -77 74q-14 14 -27.5 27t-24 23
t-16 15.5t-4.5 5.5z" />
    <glyph glyph-name="quotesingle" unicode="'" 
d="M358 721l105 4l-27 -171h-20q-8 0 -14 0.5t-6 1.5z" />
    <glyph glyph-name="parenleft" unicode="(" horiz-adv-x="472" 
d="M84 417l344 503l-10 -83l-286 -428l242 -430l-2 -83z" />
    <glyph glyph-name="parenright" unicode=")" horiz-adv-x="494" 
d="M112 -87l-2 83l242 430l-290 424l-10 83l348 -499z" />
    <glyph glyph-name="asterisk" unicode="*" 
d="M123 693l578 -444l-316 193zM118 236l555 457l-215 -248zM414 810l34 -332l-29 -437l-27 439zM41 438l375 21l393 -32l-388 -16z" />
    <glyph glyph-name="plus" unicode="+" 
d="M377 799l68 1l5 -312l283 -1l2 -64l-288 1l1 -358l-70 -1l1 363l-291 2l3 61l289 -2z" />
    <glyph glyph-name="comma" unicode="," 
d="M335 155l205 -127l-145 -243l14 203z" />
    <glyph glyph-name="hyphen" unicode="-" horiz-adv-x="832" 
d="M109 516l597 -3l-55 -87l-495 11z" />
    <glyph glyph-name="period" unicode="." 
d="M333 97l111 4l-2 -101q-31 -1 -55 -1h-37t-17 1v97z" />
    <glyph glyph-name="slash" unicode="/" 
d="M3 -188l19 146l631 757l126 28z" />
    <glyph glyph-name="zero" unicode="0" 
d="M-14 454l418 373l426 -377l-428 -408zM408 756l-361 -304l358 -334l353 332zM378 585h46l-2 -335l-44 -2v337z" />
    <glyph glyph-name="one" unicode="1" 
d="M360 675l58 161v-832h-58v671z" />
    <glyph glyph-name="two" unicode="2" 
d="M136 563l400 279l212 -218l-451 -501l432 -1l-65 -62l-504 -1l512 562l-143 147l-304 -216z" />
    <glyph glyph-name="three" unicode="3" 
d="M135 837l520 1l-238 -293l310 -203l-593 -304l23 81l478 230l-293 185l206 255l-344 2z" />
    <glyph glyph-name="four" unicode="4" 
d="M567 869l-1 -752l-55 -111l4 808zM82 380l452 444l4 -445zM231 437l274 1l20 300zM560 433l187 3l-95 -57h-88z" />
    <glyph glyph-name="five" unicode="5" 
d="M282 907l443 -138l-88 -40l-330 119zM291 899l40 -23l-162 -312l-71 -19zM155 594l603 -252l-503 -339l-152 -24l516 352l-494 214z" />
    <glyph glyph-name="six" unicode="6" 
d="M84 34l425 859l8 -102l-176 -392l320 -219zM305 351l-111 -215l324 79z" />
    <glyph glyph-name="seven" unicode="7" 
d="M176 723l559 145l-319 -838l-97 -97l339 857l-408 -109z" />
    <glyph glyph-name="eight" unicode="8" 
d="M430 884l237 -198l-253 -205l-218 211zM255 692l167 -144l178 140l-170 131zM416 542l285 -252l-275 -277l-291 269zM424 465l-218 -181l218 -200l208 210z" />
    <glyph glyph-name="nine" unicode="9" 
d="M199 705q519 170 518 169t-39 -100t-67.5 -177t-59.5 -159q-71 -190 -161 -431l-30 77l147 425zM626 785l-311 -94l218 -124z" />
    <glyph glyph-name="colon" unicode=":" 
d="M345 656l88 -2l-4 -204l-86 3zM343 168h85l4 -196h-83z" />
    <glyph glyph-name="semicolon" unicode=";" 
d="M345 656l88 -2l-4 -204l-86 3zM343 168h85l-4 -105l-115 -164z" />
    <glyph glyph-name="less" unicode="&#x3c;" 
d="M703 734l-6 -74l-509 -262l478 -291l4 -71l-568 359z" />
    <glyph glyph-name="equal" unicode="=" 
d="M97 609l651 -1l-84 -52h-508zM158 346l525 -1l78 -54l-676 1z" />
    <glyph glyph-name="greater" unicode="&#x3e;" 
d="M744 417l-600 -365l4 71l510 297l-509 262l-6 74z" />
    <glyph glyph-name="question" unicode="?" 
d="M422 -193l-119 301l288 -172l-333 -5l274 180zM80 756l631 164l-254 -392l-36 -436l-29 427l222 330l-452 -125z" />
    <glyph glyph-name="at" unicode="@" 
d="M353 52l-362 401l427 393l409 -396l-391 -304l-288 319l267 237l260 -236l-223 -170l-134 120l61 105l96 -22l-89 83l140 -64l-58 -159l144 115l-194 183l-223 -195l247 -250l322 243l-349 331l-361 -328l304 -343zM476 461q-2 -2 -14.5 3l-27.5 11q-18 7 -39 17l-35 -63
l76 -61q12 27 21 48q8 18 14 32t5 13z" />
    <glyph glyph-name="A" unicode="A" horiz-adv-x="933" 
d="M536 1014l492 -1086l-180 105l-303 698zM247 67l-188 -134l482 1097l7 -264zM-8 434h1045l-117 -106l-836 -2z" />
    <glyph glyph-name="B" unicode="B" horiz-adv-x="824" 
d="M294 803l100 -4l-7 -701l-95 -87zM141 966l535 -322l-531 -415l67 173l305 240l-281 156zM148 566l677 -227l-688 -488l66 176l432 287l-429 135z" />
    <glyph glyph-name="C" unicode="C" 
d="M56 400l751 482l-13 -139l-542 -343l522 -361v-123z" />
    <glyph glyph-name="D" unicode="D" 
d="M288 818l102 -79l9 -759l-111 -33v871zM122 1017l681 -645l-667 -620l31 178l488 438l-447 420z" />
    <glyph glyph-name="E" unicode="E" 
d="M328 834l117 -16v-839l-113 -56zM120 959l679 -244l-199 -37l-382 133zM195 435h432l-97 -97h-277zM238 -44l404 137l181 -46l-693 -241z" />
    <glyph glyph-name="F" unicode="F" 
d="M353 816l121 -15v-845l-116 -116zM153 938l659 -250l-184 -30l-399 150zM267 419l358 1l-92 -102h-266v101z" />
    <glyph glyph-name="G" unicode="G" 
d="M10 398l734 536l-2 -140l-531 -390l496 -315l6 -144zM642 -276v765l123 -143l3 -474z" />
    <glyph glyph-name="H" unicode="H" 
d="M225 916l112 -204l-2 -761l-107 -156zM601 728l114 183v-1106l-118 137zM-47 412h1031l-102 -105h-809z" />
    <glyph glyph-name="I" unicode="I" 
d="M424 653l116 -93l-3 -725l-57 -216l-55 210zM487 555l-167 423l408 -244l-477 -7l392 257z" />
    <glyph glyph-name="J" unicode="J" 
d="M656 781l118 212l1 -907l-796 -281l167 474l30 -228l-20 -70l500 192v608z" />
    <glyph glyph-name="K" unicode="K" 
d="M221 954l106 -150l2 -855l-104 -168zM19 477l161 5l667 -460l75 -180zM10 250l907 665l-90 -191l-639 -474h-178z" />
    <glyph glyph-name="L" unicode="L" 
d="M180 985l107 -293l-3 -749l-104 -123v1165zM139 94h707l123 -99l-995 -3z" />
    <glyph glyph-name="M" unicode="M" 
d="M7 906l435 -245l437 250l-3 -132l-428 -243l-430 233zM101 794l92 -48q1 -224 2 -390q0 -71 0.5 -139t0.5 -121t1 -116q-21 -27 -20.5 -26.5t-7.5 -8.5l-66 -79zM402 606h96l5 -711l-52 -142l-62 144zM723 725q-53 0 -14.5 22t45.5 27q10 6 63 38l6 -964l-100 120
q1 221 1 391v141.5v124t-0.5 87.5t-0.5 13z" />
    <glyph glyph-name="N" unicode="N" 
d="M132 996l518 -745l1 539l94 222l2 -1109l-615 905v188zM182 833l112 -105l-3 -682l-108 -144z" />
    <glyph glyph-name="O" unicode="O" horiz-adv-x="1038" 
d="M167 391l386 371l392 -369l-393 -397zM557 638l-268 -245l265 -265l266 265zM509 854l50 116l44 -117l3 -920l-50 -145l-46 149zM115 436h904l101 -40l-100 -49l-908 -1l-96 49z" />
    <glyph glyph-name="P" unicode="P" 
d="M313 836l105 -23l11 -905l-111 -149zM189 964l631 -364l-624 -320l78 156l356 168l-358 199z" />
    <glyph glyph-name="Q" unicode="Q" 
d="M1 430q45 57 76.5 89t71 72.5t81.5 83.5q98 100 243 249l451 -482l-446 -405q-145 119 -244 202q-42 35 -82.5 68.5t-69.5 57.5t-81 65zM481 782l-341 -342l334 -267l318 270zM481 424h185l-94 -88l-197 1l-66 87h172zM421 399l110 4l-2 -479l-52 -144l-52 144z" />
    <glyph glyph-name="R" unicode="R" 
d="M236 840l96 -21l7 -913l-99 -153zM103 973l639 -369l-624 -321l68 132l369 193l-356 205zM130 592l831 -671l-218 40l-568 485z" />
    <glyph glyph-name="S" unicode="S" 
d="M75 495l585 427l213 27l-566 -421l593 -203l-534 -445l-247 -52l558 456z" />
    <glyph glyph-name="T" unicode="T" 
d="M-40 721h1016l-113 -107h-807zM403 842l51 122l63 -127l1 -944l-51 -137l-64 143v943z" />
    <glyph glyph-name="U" unicode="U" 
d="M123 831l120 168l-3 -934l412 1l1 934l114 -184l-2 -860l-643 -1z" />
    <glyph glyph-name="V" unicode="V" 
d="M37 943l163 -87l245 -641l266 637l178 104l-450 -1062z" />
    <glyph glyph-name="W" unicode="W" horiz-adv-x="832" 
d="M61 -201l5 156l361 415l377 -439l8 -149l-385 432zM156 -25l-141 704l25 398l201 -1019zM619 60l203 1037l38 -402l-161 -739z" />
    <glyph glyph-name="X" unicode="X" 
d="M-64 -202l117 308l686 772l208 51zM115 939l173 -54l533 -770l20 -209z" />
    <glyph glyph-name="Y" unicode="Y" 
d="M32 945l182 -48l250 -298l249 309l163 27l-360 -453l1 -451l-59 -338l-47 344v453z" />
    <glyph glyph-name="Z" unicode="Z" 
d="M-15 686l121 103l851 -2l-87 -104zM883 742l-657 -719l-140 3l665 716h132zM-27 -29l86 107l879 2l-136 -109h-829z" />
    <glyph glyph-name="bracketleft" unicode="[" 
d="M300 847l194 12l-135 -64v-725l137 -58h-199z" />
    <glyph glyph-name="backslash" unicode="\" 
d="M3 743l126 -28l631 -757l19 -146z" />
    <glyph glyph-name="bracketright" unicode="]" 
d="M527 12h-199l137 58v773l-135 64l194 -12z" />
    <glyph glyph-name="asciicircum" unicode="^" 
d="M422 735l311 -373l-48 4l-261 301l-200 -311l-48 -9z" />
    <glyph glyph-name="underscore" unicode="_" 
d="M24 14l93 55l620 2l87 -59z" />
    <glyph glyph-name="a" unicode="a" horiz-adv-x="933" 
d="M470 922l412 -910l-108 63l-299 689zM178 78l-111 -79l405 921l4 -151zM-8 414h943l-73 -66l-812 -2z" />
    <glyph glyph-name="b" unicode="b" horiz-adv-x="824" 
d="M270 782l50 -2l-7 -675l-45 -41zM155 903l434 -261l-440 -344l36 93l322 254l-300 166zM144 529l586 -196l-593 -421l39 104l458 304l-458 144z" />
    <glyph glyph-name="c" unicode="c" 
d="M56 400l683 438l-8 -85l-557 -352l536 -371v-71z" />
    <glyph glyph-name="d" unicode="d" 
d="M263 771l52 -40l8 -737l-60 -18v795zM130 931l590 -559l-598 -556l18 105l498 447l-458 430z" />
    <glyph glyph-name="e" unicode="e" 
d="M297 810l67 -9v-811l-63 -31zM120 917l545 -196l-119 -22l-366 128zM178 415h341l-57 -57h-250zM199 -60l388 132l109 -28l-563 -196z" />
    <glyph glyph-name="f" unicode="f" 
d="M326 793l71 -9v-821l-66 -66zM153 896l529 -200l-103 -17l-383 144zM240 399l284 1l-56 -62h-228v61z" />
    <glyph glyph-name="g" unicode="g" 
d="M10 399l670 489l-1 -85l-544 -400l509 -324l4 -91zM629 -211v636l73 -85l3 -462z" />
    <glyph glyph-name="h" unicode="h" 
d="M194 821l62 -113l-2 -752l-58 -84zM570 723l64 103v-957l-68 79zM-47 392h924l-63 -65h-787z" />
    <glyph glyph-name="i" unicode="i" 
d="M378 605l66 -53l-3 -715l-32 -121l-30 115zM415 624l-119 301l288 -172l-333 -5l274 180z" />
    <glyph glyph-name="j" unicode="j" 
d="M643 777l68 122l1 -800l-733 -259l117 333l16 -121l-30 -107l561 216v616z" />
    <glyph glyph-name="k" unicode="k" 
d="M182 878l56 -79l2 -846l-54 -87zM18 459l89 3l654 -451l44 -105zM10 270l783 574l-51 -109l-628 -465h-104z" />
    <glyph glyph-name="l" unicode="l" 
d="M132 845l57 -156l-3 -740l-54 -64v960zM74 74h689l73 -59l-862 -3z" />
    <glyph glyph-name="m" unicode="m" 
d="M7 866l407 -229l411 235l-2 -83l-404 -229l-405 220zM90 745l42 -22q1 -213 2 -379q0 -71 0.5 -139t0.5 -121t-0.5 -85l-0.5 -32q-2 1 -8 -6.5t-14 -16.5l-20 -24zM398 586h47l5 -688l-29 -79l-35 81zM720 745q-1 0 6 4t15 9q10 6 23 14l5 -857l-49 59q1 215 1 385v141.5
v124t-0.5 87.5z" />
    <glyph glyph-name="n" unicode="n" 
d="M132 919l518 -745l1 613l44 104l2 -909l-565 831v106zM182 779l62 -58l-3 -670l-58 -77z" />
    <glyph glyph-name="o" unicode="o" horiz-adv-x="1027" 
d="M149 391l354 340l360 -338l-361 -365zM507 668l-301 -274l298 -298l298 297zM484 851l23 54l21 -55l3 -914l-24 -69l-22 72zM77 413l886 3l55 -22l-55 -27l-887 -1q-18 8 -31 13q-12 5 -21.5 8.5t-8.5 4.5z" />
    <glyph glyph-name="p" unicode="p" 
d="M282 810l55 -12l10 -885l-61 -82zM189 907l530 -306l-527 -271l46 92l382 181l-384 213z" />
    <glyph glyph-name="q" unicode="q" 
d="M-22 442q0 -1 19 18t50.5 51t71 72.5t81.5 83.5q98 100 223 228l419 -448l-415 -377q-126 104 -225 187q-42 35 -82.5 68.5t-72 59.5t-50.5 42t-19 15zM432 819l-375 -377l368 -293l349 296zM431 408h131l-51 -48l-172 1l-36 47h128zM396 384l60 2l-2 -455l-27 -75
l-27 75z" />
    <glyph glyph-name="r" unicode="r" 
d="M196 814l46 -10l7 -893l-49 -76zM103 911l530 -306l-527 -271l35 68l393 205l-380 219zM111 527l707 -571l-127 23l-558 477z" />
    <glyph glyph-name="s" unicode="s" 
d="M75 501l551 402l125 16l-534 -397l595 -204l-504 -420l-153 -32l520 425z" />
    <glyph glyph-name="t" unicode="t" 
d="M-28 693l894 4l-62 -63h-782zM381 839l28 67l36 -73l1 -937l-28 -76l-37 82v937z" />
    <glyph glyph-name="u" unicode="u" 
d="M123 826l70 98l-3 -879l462 1l1 869l64 -103l-2 -836l-593 -1z" />
    <glyph glyph-name="v" unicode="v" 
d="M37 895l97 -52l266 -693l288 690l108 63l-400 -944z" />
    <glyph glyph-name="w" unicode="w" horiz-adv-x="832" 
d="M63 -136l3 85l336 386l352 -410l4 -77l-356 400zM147 22l-132 658l13 204l162 -820zM620 64l168 860l22 -228l-149 -685z" />
    <glyph glyph-name="x" unicode="x" 
d="M-64 -92l72 189l678 764l130 32zM103 900l99 -31l526 -760l11 -115z" />
    <glyph glyph-name="y" unicode="y" 
d="M32 908l105 -28l267 -317l263 327l95 16l-332 -418l1 -456l-31 -177l-25 183v458z" />
    <glyph glyph-name="z" unicode="z" 
d="M-6 706l65 59l808 2l-45 -60zM788 722l-620 -679l-80 2l629 677h71zM-19 3l45 55l805 2l-73 -57h-777z" />
    <glyph glyph-name="asciitilde" unicode="~" horiz-adv-x="629" 
d="M27 468l162 163l244 -149l158 123l-154 -194l-244 153z" />
    <glyph glyph-name="tilde" unicode="&#x2dc;" horiz-adv-x="616" 
d="M24 509l162 163l244 -149l158 123l-154 -194l-244 153z" />
    <glyph glyph-name="endash" unicode="&#x2013;" horiz-adv-x="790" 
d="M141 371l469 -1l53 -50l-569 1z" />
    <glyph glyph-name="emdash" unicode="&#x2014;" 
d="M101 374l629 2l55 -55h-739z" />
    <glyph glyph-name="quoteleft" unicode="&#x2018;" horiz-adv-x="259" 
d="M133 634l-38 -162l-61 203l194 32z" />
    <glyph glyph-name="quoteright" unicode="&#x2019;" horiz-adv-x="316" 
d="M45 707l194 -32l-61 -203l-38 162z" />
    <glyph glyph-name="quotedblleft" unicode="&#x201c;" horiz-adv-x="387" 
d="M260 589q-12 -39 -21 -70q-8 -26 -14 -48.5t-6 -23.5l-1.5 7.5t-4.5 20t-6.5 29t-6.5 33.5l-18 92l153 80zM113 622l-12 -185l-64 237l159 76z" />
    <glyph glyph-name="quotedblright" unicode="&#x201d;" horiz-adv-x="392" 
d="M47 669l153 -80q-11 -52 -19 -92q-3 -17 -6.5 -33.5t-6 -29l-4 -20l-1.5 -7.5q0 1 -6.5 23.5t-14.5 48.5l-20 70zM186 710l159 -76l-64 -237l-12 185z" />
    <glyph glyph-name="bullet" unicode="&#x2022;" horiz-adv-x="769" 
d="M47 382q-1 -1 4 7t13 21t18.5 30.5t21.5 35.5q26 42 59 98l224 93l207 -105l127 -199l-119 -184l-213 -111l-257 117l-42 100q-8 19 -15.5 36.5l-13.5 31.5t-10 22t-4 7z" />
    <glyph glyph-name="fraction" unicode="&#x2044;" horiz-adv-x="694" 
d="M49 -125l2 119l517 768l127 50z" />
    <glyph glyph-name="percent" horiz-adv-x="0" 
d="M53 52l52 138l586 517l142 32zM281 501l-187 152l160 151l185 -119zM258 741l-95 -80q32 -27 57 -48q10 -9 20.5 -17.5t18 -15t12 -10l4.5 -3.5q-1 1 13.5 17t32.5 36q20 23 47 52zM448 250q0 -1 9.5 7t24.5 21t34.5 30t40.5 35q48 42 110 97l198 -179l-210 -171
q-58 45 -104 81q-20 15 -38.5 29.5t-32.5 25.5t-23 18t-9 6zM661 375l-5.5 -5.5t-15 -13.5t-21.5 -18.5t-25 -20.5q-30 -25 -69 -56l132 -108l140 108q-39 32 -69 58q-13 11 -25 21t-21.5 18t-15 12.5z" />
  </font>
</defs>
</svg>
